Last change 2020.03.01 14:20:52 / Time 2021.10.18 11:15:13

Music Database

My complete CD collection digitalized using differnent Linux tools in connection with remote CDDB databases.
These web pages give overview of content according to CDDB info.

cddb/07101112.txt

# xmcd CD database file generated by Grip 3.3.1
# 
# Track frame offsets:
#       150
#       22222
#       41355
#       65675
#       88327
#       101647
#       116525
#       127495
#       143417
#       161057
#       174397
#       191987
#       211892
#       228515
#       248250
#       258665
#       277500
#       295640
# 
# Disc length: 4115 seconds
# 
# Revision: 26
# Submitted via: Grip 3.3.1
# 
DISCID=07101112
DTITLE=John Fogerty / Premonition
DYEAR=1998
DGENRE=rock
DID3=17
TTITLE0=Born On The Bayou
TTITLE1=Green River
TTITLE2=Susie Q.
TTITLE3=I Put A Spell On You
TTITLE4=Who'll Stop The Rain
TTITLE5=Premonition
TTITLE6=Almost Saturday Night
TTITLE7=Rockin' All Over The World
TTITLE8=Joy Of My Life
TTITLE9=Down On The Corner
TTITLE10=Centerfield
TTITLE11=Swamp River Days
TTITLE12=Hot Rod Heart
TTITLE13=The Old Man Down The Road
TTITLE14=Bad Moon Rising (Live)
TTITLE15=Fortunate Son (Live)
TTITLE16=Proud Mary (Live)
TTITLE17=Travelin' Band (Live)
EXTD=
EXTT0=
EXTT1=
EXTT2=
EXTT3=
EXTT4=
EXTT5=
EXTT6=
EXTT7=
EXTT8=
EXTT9=
EXTT10=
EXTT11=
EXTT12=
EXTT13=
EXTT14=
EXTT15=
EXTT16=
EXTT17=
PLAYORDER=