Last change 2020.03.01 14:20:52 / Time 2021.10.22 08:51:08

Music Database

My complete CD collection digitalized using differnent Linux tools in connection with remote CDDB databases.
These web pages give overview of content according to CDDB info.

cddb/070f1c13.txt

# xmcd CD database file generated by Grip 3.3.1
# 
# Track frame offsets:
#       150
#       18255
#       31755
#       48075
#       70912
#       82707
#       97402
#       113777
#       123512
#       143997
#       158445
#       169327
#       184450
#       197445
#       214177
#       228577
#       246075
#       265292
#       276060
# 
# Disc length: 3870 seconds
# 
# Revision: 2
# Submitted via: Grip 3.3.1
# 
DISCID=070f1c13
DTITLE=The Commitments / The best of The Commitments
DYEAR=1996
DGENRE=rock
DID3=24
TTITLE0=Mustang Sally
TTITLE1=Chain of fools
TTITLE2=Treat her right
TTITLE3=Same old me
TTITLE4=The dark end of the street
TTITLE5=Do right woman do right man
TTITLE6=Take me to the river
TTITLE7=Mr Pitiful
TTITLE8=Try a little tenderness
TTITLE9=I never loved a man
TTITLE10=Hard to handle
TTITLE11=(She's) some kind of wonderful
TTITLE12=Fa-fa-fa-fa (Sad song)
TTITLE13=Bring it on home to me
TTITLE14=I can't stand the rain
TTITLE15=Ain't nothing you can do
TTITLE16=Half a man
TTITLE17=In the midnight hour
TTITLE18=Destination anywhere
EXTD=
EXTT0=The Commitments
EXTT1=The Commitments
EXTT2=The Commitments
EXTT3=Andrew Strong
EXTT4=The Commitments
EXTT5=The Commitments
EXTT6=The Commitments
EXTT7=
EXTT8=
EXTT9=
EXTT10=
EXTT11=
EXTT12=
EXTT13=
EXTT14=
EXTT15=
EXTT16=
EXTT17=
EXTT18=
PLAYORDER=