Last change 2020.03.01 14:20:52 / Time 2021.10.18 11:41:24

Music Database

My complete CD collection digitalized using differnent Linux tools in connection with remote CDDB databases.
These web pages give overview of content according to CDDB info.

cddb/05116212.txt

# xmcd CD database file generated by Grip 3.3.1
# 
# Track frame offsets:
#       183
#       16618
#       41228
#       61173
#       76595
#       96913
#       114005
#       130928
#       148303
#       162593
#       177963
#       200058
#       216655
#       234768
#       260445
#       280480
#       296800
#       316528
# 
# Disc length: 4452 seconds
# 
# Revision: 1
# Submitted via: Grip 3.3.1
# 
DISCID=05116212
DTITLE=Demis Roussos / The Very Best Of
DYEAR=1992
DGENRE=folk
DID3=-1
TTITLE0=Forever And Ever
TTITLE1=My Friend The Wind
TTITLE2=Profeta Non Saro
TTITLE3=Rain And Tears
TTITLE4=We Shall Dance
TTITLE5=It's Five O'clock
TTITLE6=End Of The World
TTITLE7=Break
TTITLE8=Happy To Be On An Island In The Sun
TTITLE9=Lovely Lady Of Arcadia
TTITLE10=Spring, Summer, Winter And Fall
TTITLE11=I Want To Live
TTITLE12=Marie Jolie
TTITLE13=In My Dreams
TTITLE14=My Reason
TTITLE15=Velvet Mornings
TTITLE16=Nature Boy
TTITLE17=Goodby My Love Goodbye
EXTD=
EXTT0=
EXTT1=
EXTT2=
EXTT3=
EXTT4=
EXTT5=
EXTT6=
EXTT7=
EXTT8=
EXTT9=
EXTT10=
EXTT11=
EXTT12=
EXTT13=
EXTT14=
EXTT15=
EXTT16=
EXTT17=
PLAYORDER=