Last change 2020.03.01 14:20:52 / Time 2020.09.19 15:38:11

Music Database

My complete CD collection digitalized using differnent Linux tools in connection with remote CDDB databases.
These web pages give overview of content according to CDDB info.

cddb/05103911.txt

# xmcd CD database file generated by Grip 3.3.1
# 
# Track frame offsets:
#       150
#       14667
#       44760
#       59595
#       76360
#       96915
#       106870
#       129530
#       148057
#       161295
#       175442
#       195567
#       216692
#       236187
#       259612
#       277225
#       301032
# 
# Disc length: 4155 seconds
# 
# Revision: 0
# Submitted via: Grip 3.3.1
# 
DISCID=05103911
DTITLE=Various / Peaceful, Religious, Universal
DYEAR=2000
DGENRE=misc
DID3=20
TTITLE0=Eleven-Faces Avalokitesvara Mantra
TTITLE1=Aria Of Wondrous Elixir
TTITLE2=The Buddha Of Medicine
TTITLE3=Praise For Avalokitesvara
TTITLE4=Dharma Embodiment Buddha Of Truth, Pureness And Perfection
TTITLE5=Karma-Avoiding Mantra
TTITLE6=Mantra Of Great Compassion
TTITLE7=Times Of Reciting Mantra Of 4-arms Avalokitesvara
TTITLE8=Heart Mantra Of Manjusri Bodhisattva
TTITLE9=Om Ma Ni Ba Ma Hong
TTITLE10=Verse Of Dharma Blossom
TTITLE11=The Song Of Triple Jewel
TTITLE12=The Offerings Of Flower & Incense
TTITLE13=The Pure & The Real
TTITLE14=The Universe In Lotus
TTITLE15=Hanshan Temple
TTITLE16=The Sanskrit Of The Great-Compassion Mantra In Dance
EXTD=
EXTT0=
EXTT1=
EXTT2=
EXTT3=
EXTT4=
EXTT5=
EXTT6=
EXTT7=
EXTT8=
EXTT9=
EXTT10=
EXTT11=
EXTT12=
EXTT13=
EXTT14=
EXTT15=
EXTT16=
PLAYORDER=

cddbinfo/05103911.txt http://www.melon.com/album/detail.htm?albumId=2260319