Last change 2020.03.01 14:20:52 / Time 2021.12.01 16:13:49

Music Database

My complete CD collection digitalized using differnent Linux tools in connection with remote CDDB databases.
These web pages give overview of content according to CDDB info.

cddb/04111a12.txt

# xmcd CD database file generated by Grip 3.3.1
# 
# Track frame offsets:
#       150
#       18392
#       32375
#       51152
#       71725
#       88730
#       106485
#       123607
#       140655
#       157880
#       177960
#       198637
#       221337
#       239467
#       253720
#       271580
#       286217
#       305497
# 
# Disc length: 4380 seconds
# 
# Revision: 0
# Submitted via: Grip 3.3.1
# 
DISCID=04111a12
DTITLE=Suzi Quattro / What Goes Around
DYEAR=
DGENRE=rock
DID3=17
TTITLE0=Devil Gate Drive
TTITLE1=The Wild One
TTITLE2=The Race Is On
TTITLE3=What Goes Around
TTITLE4=Can The Can
TTITLE5=She's In Love With You
TTITLE6=Stumblin' In
TTITLE7=I May Be Too Young
TTITLE8=Empty Rooms
TTITLE9=48 Crash
TTITLE10=Make Love To Me
TTITLE11=Born To Run
TTITLE12=Four Letter Words
TTITLE13=Tear Me Apart
TTITLE14=Your Mama Won't Like Me
TTITLE15=Rock Hard
TTITLE16=Mama's Boy
TTITLE17=If You Can't Give Me Love
EXTD=
EXTT0=
EXTT1=
EXTT2=
EXTT3=
EXTT4=
EXTT5=
EXTT6=
EXTT7=
EXTT8=
EXTT9=
EXTT10=
EXTT11=
EXTT12=
EXTT13=
EXTT14=
EXTT15=
EXTT16=
EXTT17=
PLAYORDER=