Last change 2020.03.01 14:20:52 / Time 2021.10.18 11:05:14

Music Database

My complete CD collection digitalized using differnent Linux tools in connection with remote CDDB databases.
These web pages give overview of content according to CDDB info.

cddb/030f7b13.txt

# xmcd
# Track frame offsets:
# 150
# 17935
# 34435
# 46345
# 64602
# 81902
# 93192
# 112950
# 123732
# 135635
# 151392
# 164427
# 183492
# 196627
# 211110
# 229682
# 249259
# 261752
# 282312
#
# Disc length: 3965 seconds
# Revision: 0
# Processed by: cddbd v1.5.2PL0 Copyright (c) Steve Scherf et al.
# Submitted via: VisiTrax 2.9.5.181 - For more info visit www.synapsa.com
#
DISCID=030f7b13
DTITLE=Johnny Reimar / Sommer Party (CD 2) Potpourri
DYEAR=1999
DGENRE=Misc
TTITLE0=Kom med til party - Peter Belli & søn - Henrik Henrik
TTITLE1=Det løber hele byen rundt - Fup eller fakta - Balladen om Klante Kofoe
TTITLE1=d
TTITLE2=Der er mig du vil ha' - Jeg er så ked a' den hænger ned a'
TTITLE3=Goddag og farvel - Pigen som bor på landet
TTITLE4=Hjerter af honning - Det er vores bryllupsdag
TTITLE5=Se dig omkring - Eviva España
TTITLE6=Hallo hr. general - Du er en blå viol - Så går vi til enkebal
TTITLE7=Bind dit gule hårbånd - Jeg har kigged dig ud
TTITLE8=Tra-la-la Suzy - Bodil
TTITLE9=Hvor er alle drømmene du drømte - Hjertelig tak
TTITLE10=Visne roser - Så længe jeg lever
TTITLE11=Rør ved mig - Hold dig fra Linda
TTITLE12=Mini Max - Jeg vil gi' en ti'er for dine tanker - Lad mig se dig smile
TTITLE13=Klap i takt - Fest i gaden
TTITLE14=Da farfar var ung - Ædelsten og røde roser - Snart er du mer' end 17 å
TTITLE14=r
TTITLE15=Har du set Mona Lisa - 18 røde roser
TTITLE16=Så ta'r vi cyklerne frem - Jeg får sommer fugle i maven
TTITLE17=Tennessee waltz - Venter på en banegård - En sød student fra Holstebro
TTITLE18=Den bedste pige - Waterloo
EXTD=
EXTT0=
EXTT1=
EXTT2=
EXTT3=
EXTT4=
EXTT5=
EXTT6=
EXTT7=
EXTT8=
EXTT9=
EXTT10=
EXTT11=
EXTT12=
EXTT13=
EXTT14=
EXTT15=
EXTT16=
EXTT17=
EXTT18=
PLAYORDER=
.