Last change 2020.03.01 14:20:52 / Time 2021.10.22 09:01:10

Music Database

My complete CD collection digitalized using differnent Linux tools in connection with remote CDDB databases.
These web pages give overview of content according to CDDB info.

cddb/0210c813.txt

# xmcd CD database file generated by Grip 3.3.1
# 
# Track frame offsets:
#       150
#       19077
#       36097
#       54325
#       73060
#       90145
#       108815
#       127257
#       144507
#       160665
#       177882
#       189312
#       206145
#       219177
#       235107
#       251375
#       272262
#       287675
#       305202
# 
# Disc length: 4298 seconds
# 
# Revision: 3
# Submitted via: Grip 3.3.1
# 
DISCID=0210c813
DTITLE=Goombay Dance Band / The Golden Hits
DYEAR=1994
DGENRE=reggae
DID3=16
TTITLE0=Sun Of Jamaica
TTITLE1=Aloha-Oe, Until We Meet Again
TTITLE2=Goombay Dance
TTITLE3=Canta Mi Lengua
TTITLE4=Under The Sun, Moon And Stars
TTITLE5=Rain
TTITLE6=Eldorado
TTITLE7=Fly Flamingo
TTITLE8=Child Of The Sun
TTITLE9=Seven Tears
TTITLE10=Bang Bang Lulu
TTITLE11=Carribean Girl
TTITLE12=Take Me Home To Jamaica
TTITLE13=Mama Coco
TTITLE14=Isle Of Atlantis
TTITLE15=A Typical Jamaican Mess
TTITLE16=Bad Bad Girls
TTITLE17=My Bonnie
TTITLE18=Goombay Dance Band Party Mega Mix
EXTD= YEAR: 1994
EXTT0=
EXTT1=
EXTT2=
EXTT3=
EXTT4=
EXTT5=
EXTT6=
EXTT7=
EXTT8=
EXTT9=
EXTT10=
EXTT11=
EXTT12=
EXTT13=
EXTT14=
EXTT15=
EXTT16=
EXTT17=
EXTT18=
PLAYORDER=