Last change 2020.03.01 14:20:52 / Time 2021.12.01 14:40:50

Music Database

My complete CD collection digitalized using differnent Linux tools in connection with remote CDDB databases.
These web pages give overview of content according to CDDB info.

cddb/000f6a11.txt

# xmcd CD database file generated by Grip 3.3.1
# 
# Track frame offsets:
#       150
#       16102
#       32960
#       54712
#       74630
#       87172
#       103152
#       120232
#       140602
#       160920
#       177597
#       197537
#       215135
#       233135
#       246535
#       267395
#       279200
# 
# Disc length: 3948 seconds
# 
# Revision: 5
# Submitted via: Grip 3.3.1
# 
DISCID=000f6a11
DTITLE=Various / Absolute Christmas - CD1
DYEAR=1994
DGENRE=misc
DID3=12
TTITLE0=John & Yoko - The Plastic Ono Band / Happy Xmas (War Is Over)
TTITLE1=Band Aid / Do They Know It's Christmas?
TTITLE2=Triad / Tänd Ett Ljus
TTITLE3=Wham / Last Christmas
TTITLE4=Just D / Juligen
TTITLE5=Mel & Kim / Rockin' Around The Christmas Tree
TTITLE6=Ulf Lundell / Snart Kommer Änglarna Att Landa
TTITLE7=The Pogues Featuring Kirsty MacColl / Fairytale Of New York
TTITLE8=Boney M / Mary's Boy Child
TTITLE9=Slade / Merry Xmas Everybody
TTITLE10=Bon Jovi / I Wish Everyday Could Be Like Christmas
TTITLE11=Adolphson & Falk / Mer Jul
TTITLE12=Chris Rea / Driving Home For Christmas
TTITLE13=S-Connection / It May Be Winter Outside
TTITLE14=Roy Wood With Wizzard / I Wish It Could Be Christmas Everyday
TTITLE15=Bing Crosby & David Bowie / Peace On Earth - Little Drummer Boy
TTITLE16=Enya / Oiche Chiún (Silent Night)
EXTD=
EXTT0=
EXTT1=
EXTT2=
EXTT3=
EXTT4=
EXTT5=
EXTT6=
EXTT7=
EXTT8=
EXTT9=
EXTT10=
EXTT11=
EXTT12=
EXTT13=
EXTT14=
EXTT15=
EXTT16=
PLAYORDER=